[Login] or [Signup]
Login
Username:
Password:
[Signup]
[Recover Account]


Poll


You must be logged in to view polls



Torrent Details For "Time Raiders 2016 x264 720p HD Dual Audio Hindi Chinese GOPISAHI"

Time Raiders 2016 x264 720p HD Dual Audio Hindi Chinese GOPISAHI

Download this torrent | Magnet Download
Health:
Seeds: 342
Leechers: 60
Completed: 1,646 
Last Checked: 06-02-2019 11:28:40
External Torrent
Update Stats
Download Magnet


Poster
No poster


Watch-Free-HD     Download

Details
Name:Time Raiders 2016 x264 720p HD Dual Audio Hindi Chinese GOPISAHI
Description:
 http://www.gopisahi.pw/

Format                         : Matroska
Format version                 : Version 4 / Version 2
File size                      : 790 MiB
Duration                       : 2 h 3 min
Overall bit rate               : 894 kb/s
Movie name                     : Time Raiders 2016 GOPISAHI

Video
Format                         : AVC
Format/Info                    : Advanced Video Codec
Codec ID                       : V_MPEG4/ISO/AVC
Duration                       : 2 h 3 min
Bit rate                       : 699 kb/s
Width                          : 1 280 pixels
Height                         : 528 pixels
Display aspect ratio           : 2.40:1
Frame rate mode                : Constant
Frame rate                     : 24.000 FPS
Color space                    : YUV
Chroma subsampling             : 4:2:0
Bit depth                      : 8 bits
Scan type                      : Progressive
Bits/(Pixel*Frame)             : 0.043
Stream size                    : 617 MiB (78%)
Title                          : GOPISAHI
Writing library                : x264 core 157 r2935 545de2f

Audio #1
Format                         : AAC
Duration                       : 2 h 3 min
Bit rate                       : 96.0 kb/s
Channel(s)                     : 2 channels
Channel positions              : Front: L R
Sampling rate                  : 48.0 kHz
Frame rate                     : 46.875 FPS (1024 SPF)
Compression mode               : Lossy
Delay relative to video        : -21 ms
Stream size                    : 85.1 MiB (11%)
Title                          : GOPISAHI
Language                       : Hindi

Audio #2
Format                         : AAC
Duration                       : 2 h 3 min
Bit rate                       : 96.0 kb/s
Channel(s)                     : 2 channels
Channel positions              : Front: L R
Sampling rate                  : 48.0 kHz
Frame rate                     : 46.875 FPS (1024 SPF)
Compression mode               : Lossy
Delay relative to video        : 11 ms
Stream size                    : 85.2 MiB (11%)
Title                          : GOPISAHI
Language                       : Chinese


Category:Movies > Hollywood Dub
Lang:Hindi
Total Size:789.67 MB
Info Hash:dec97adf6b3f391ca0bdcf8f969c9dac02f08091
Added By:gopisahi
Date Added:01-02-2019 14:18:06
Views:1,382
Hits:185

Download Torrent

Ratings:Not Yet Rated (Log in to rate it)


Tracker:
udp://tracker.coppersurfer.tk:6969/announce


File List: 


Comments

No comments still posted

Powered by 10 Hamsters v2-svn -|- Page Generated In 0.306970 secs.
-|- RSS FEED
Theme By: Nikkbu